tune id needed 1985 ltj buckem mixmag 21

Messages
162
Likes
7
#1
hi can any one help id a tune ?
its on mixmag 21 -ltj buckem 1985
if you have the cd when you play it - one and only by pfm,
it mixes into it,and has a sample that says --forever--its a jazzy funky track that ive been after for years and years now,doing my head in because on the track listing on the back of the cd case
it says its --
music by ltj buckem

but its not i have allready got that track
here is a link to the track its track number 7,,
cheers all thanks for your help
PARANOID ONE :flame: :alchy:

http://www.mymusic.com/product.asp?...C1J4F1587G2&muzenbr=249585&target=product.asp
 
Last edited:

Glory_G

New Member
Messages
1
Likes
0
#2
hi, the original tracklist from mixmag is really crap...

here's the correctly cue-sheet for the mix..

PERFORMER "LTJ Bukem"
TITLE "MixMag Live! Vol. 21"
FILE "LTJ Bukem - MixMag Live! Vol. 21.mp3" MP3
TRACK 01 AUDIO
TITLE "One Line"
PERFORMER "Fokus"
INDEX 01 00:00:00
TRACK 02 AUDIO
TITLE "Exit 9"
PERFORMER "Source Direct"
INDEX 01 05:11:00
TRACK 03 AUDIO
TITLE "Airtight"
PERFORMER "Funky Technicians"
INDEX 01 14:18:00
TRACK 04 AUDIO
TITLE "Can We Change The Future"
PERFORMER "Code Of Practice"
INDEX 01 21:07:00
TRACK 05 AUDIO
TITLE "One & Only"
PERFORMER "PFM"
INDEX 01 27:50:00
TRACK 06 AUDIO
TITLE "Tokyo Dawn"
PERFORMER "Doc Scott"
INDEX 01 36:02:00
TRACK 07 AUDIO
TITLE "Free La Funk (PFM Remix)"
PERFORMER "JMJ & Richie"
INDEX 01 39:50:00
TRACK 08 AUDIO
TITLE "Sorrow"
PERFORMER "Future Bound"
INDEX 01 44:47:20
TRACK 09 AUDIO
TITLE "Breathless"
PERFORMER "Intense"
INDEX 01 51:16:00
TRACK 10 AUDIO
TITLE "Just Visiting Mars"
PERFORMER "F.B.D. Project"
INDEX 01 58:06:55
TRACK 11 AUDIO
TITLE "Music"
PERFORMER "LTJ Bukem"
INDEX 01 61:56:40


the track, do you needed is no. 7
JMJ & Richie - Free La Funk (PFM Remix)

the tracks 'No Mystery' & 'Liquid Groove'
doesn't exist

;) Glory_G
 
Messages
162
Likes
7
#4
freeagent said:
Niceone Glory G! That's one of my all time fav mixes, as well as Doc Scott's mixmag.


WICKED sorted cheers mate loads of respect to you for taking the time to help me finally id this track,
just had a listen to your mp3 mixer`s on your site
I LIKE VERY MUCH=i will be downloading them soon to add to my collection,,
i will also have to send you a mix ive done,,
been into the scene from the start going way back to the electro scene,,watched the scene grow and change into were it is now,
done loads of old skool nights my self, in derby- 1992-1995 stuff,
thanks again mate,,,,,,,,,,,, :rave:
dj paranoid :cool:
into drum and bass now
 
Top