DJ Sonix - Liquid Summer [summer 2013 uplifting melodic epic trancey liquid dnb]

Discussion in 'Members Mixes' started by sonix, Jul 3, 2013.

  1. sonix

    sonix New Member

    Joined:
    Aug 14, 2010
    Messages:
    13
    Likes Received:
    1
    Location:
    Los Angeles
    Freshly recorded new mix for the summer! Starts out atmospheric trancey to set the uplifting mood and atmosphere. Goes into deep melodic. Then playful jazzy jump up. Then hands in the air festival sing along happy dance music. Ends with typical Sonix driven epic sound that you may have heard in the last mix Liquid Courage. A lot of work was put into this. I lost count of how many times I changed the track list and track order to make sure the set is cohesive and driven with a universal sound and maintaining energy; had to sacrifice some tracks I really want in it because of it. After many versions and exhausting my ears, hopefully this set holds up and can be played for many months to come. Without further ado...


    DJ Sonix - Liquid Summer
    Duration = 59:37 mins.

    01. Metrik - Distant Shores
    02. Zander - My Feelings For Her
    03. Feint - My Sunset
    04. Fred V & Grafix - Games People Play
    05. DC Breaks feat. Belle Humble - Move Closer
    06. Rudimental feat. John Newman - Feel The Love (Fred V & Grafix Remix)
    07. Emeli Sande feat. Naughty Boy - Daddy (Fred V & Grafix Remix)
    08. 2db - Break The Walls
    09. Archeo - The Payback (Blame's Back To The Lab Remix)
    10. Ayah Marar - Unstoppable (Metrik Remix)
    11. Metrik feat. Reija Lee - Freefall
    12. Camo & Krooked feat. Ayah Marar - Cross The Line (Metrik Remix)
    13. Loadstar - Refuse To Love
    14. J Majik & Wickaman - Lift Me Up
    15. Jupiter Ace feat. Geneva Lane - Glowing In The Dark (DC Breaks Remix)
    16. Drumsound & Bassline Smith feat. Tom Cane - Through The Night
    17. Bassnectar & DC Breaks - Breathless


    Cue file for CD burning:
    Code:
    TITLE "Liquid Summer"
    PERFORMER "DJ Sonix"
    FILE "DJ_Sonix_-_Liquid_Summer-www_djsonix_com.mp3" MP3
      TRACK 01 AUDIO
        TITLE "Distant Shores"
        PERFORMER "Metrik"
        INDEX 01 00:00:00
      TRACK 02 AUDIO
        TITLE "My Feelings For Her"
        PERFORMER "Zander"
        INDEX 01 04:44:00
      TRACK 03 AUDIO
        TITLE "My Sunset"
        PERFORMER "Feint"
        INDEX 01 08:22:00
      TRACK 04 AUDIO
        TITLE "Games People Play"
        PERFORMER "Fred V & Grafix"
        INDEX 01 12:00:00
      TRACK 05 AUDIO
        TITLE "Move Closer"
        PERFORMER "DC Breaks feat. Belle Humble"
        INDEX 01 14:55:00
      TRACK 06 AUDIO
        TITLE "Feel The Love (Fred V & Grafix Remix)"
        PERFORMER "Rudimental feat. John Newman"
        INDEX 01 17:49:00
      TRACK 07 AUDIO
        TITLE "Daddy (Fred V & Grafix Remix)"
        PERFORMER "Emeli Sande feat. Naughty Boy"
        INDEX 01 21:27:00
      TRACK 08 AUDIO
        TITLE "Break The Walls"
        PERFORMER "2db"
        INDEX 01 24:44:00
      TRACK 09 AUDIO
        TITLE "The Payback (Blame's Back To The Lab Remix)"
        PERFORMER "Archeo"
        INDEX 01 28:00:00
      TRACK 10 AUDIO
        TITLE "Unstoppable (Metrik Remix)"
        PERFORMER "Ayah Marar"
        INDEX 01 32:00:00
      TRACK 11 AUDIO
        TITLE "Freefall"
        PERFORMER "Metrik feat. Reija Lee"
        INDEX 01 34:54:00
      TRACK 12 AUDIO
        TITLE "Cross The Line (Metrik Remix)"
        PERFORMER "Camo & Krooked feat. Ayah Marar"
        INDEX 01 37:49:00
      TRACK 13 AUDIO
        TITLE "Refuse To Love"
        PERFORMER "Loadstar"
        INDEX 01 40:44:00
      TRACK 14 AUDIO
        TITLE "Lift Me Up"
        PERFORMER "J Majik & Wickaman"
        INDEX 01 43:38:00
      TRACK 15 AUDIO
        TITLE "Glowing In The Dark (DC Breaks Remix)"
        PERFORMER "Jupiter Ace feat. Geneva Lane"
        INDEX 01 48:44:00
      TRACK 16 AUDIO
        TITLE "Through The Night"
        PERFORMER "Drumsound & Bassline Smith feat. Tom Cane"
        INDEX 01 52:00:00
      TRACK 17 AUDIO
        TITLE "Breathless"
        PERFORMER "Bassnectar & DC Breaks"
        INDEX 01 54:55:00
    

    MP3 Quality: 320 Kbps
    File Size: 136 MB

    Download Links:
    http://www.djsonix.com/mixes/DJ_Sonix_-_Liquid_Summer-www_djsonix_com.mp3

    http://soundcloud.com/djsonix/dj-sonix-liquid-summer



    Enjoy!

    More mixes at http://www.djsonix.com/mixes/

    Thanks!

    -Sonix
    http://www.djsonix.com
    http://www.facebook.com/djsonixofficial
    http://www.soundcloud.com/djsonix
    http://www.twitter.com/djsonix