DJ Sonix - King Of The Stars [trancy / liquid Drum and Bass live set]

Discussion in 'Members Mixes' started by sonix, Aug 14, 2010.

  1. sonix

    sonix New Member

    Joined:
    Aug 14, 2010
    Messages:
    13
    Likes Received:
    1
    Location:
    Los Angeles
    [​IMG]

    Hi everyone! I'm new here and it's good to be here! I come bearing gifts! A delicious dish of Liquid Drum & Bass. This is a follow-up to "King Of The Jungle" DJ set. Heavier on the uplifting and epic trancy side than its counterpart. A sort of a Yin to its Yang, if you will. Very lush and... well, enough of me talking; I'll let the music speak for itself. Enjoy!


    DJ Sonix - King Of The Stars
    Duration = 62:18 mins.

    01. Current Value feat. Snow - Edge Of Dreams
    02. DJ Trax - Lay Back (Sonix cut)
    03. Unknown Error - The Yearning (Apex VIP)
    04. B-Complex - Beautiful Lies (Sonix VIP)
    05. Muffler - Hear Me Scream
    06. Shock One feat. Metrik & Phetsta - True Believer
    07. Mistabishi - No Matter What (Sonix cut)
    08. Concept & Shnek - Burning Up Inside
    09. Crystal Clear & Netsky - King Of The Stars
    10. Blue Sonix - Luv Me (Logistics Remix)
    11. Logistics - Intervention
    12. MRSA - Drift Away
    13. London Elektricity - Just One Second (Apex Remix)
    14. Mistabishi - View From Nowhere


    Cue file for CD burning:
    Code:
    TITLE "King Of The Stars"
    PERFORMER "DJ Sonix - djSonix.com"
    FILE "DJ_Sonix_-_King_Of_The_Stars-www_djsonix_com.mp3" MP3
      TRACK 01 AUDIO
        TITLE "Edge Of Dreams"
        PERFORMER "Current Value feat. Snow"
        INDEX 01 00:00:00
      TRACK 02 AUDIO
        TITLE "Lay Back (Sonix cut)"
        PERFORMER "DJ Trax"
        INDEX 01 06:11:00
      TRACK 03 AUDIO
        TITLE "The Yearning (Apex VIP)"
        PERFORMER "Unknown Error"
        INDEX 01 08:06:00
      TRACK 04 AUDIO
        TITLE "Beautiful Lies (Sonix VIP)"
        PERFORMER "B-Complex"
        INDEX 01 14:38:00
      TRACK 05 AUDIO
        TITLE "Hear Me Scream"
        PERFORMER "Muffler"
        INDEX 01 20:17:00
      TRACK 06 AUDIO
        TITLE "True Believer"
        PERFORMER "Shock One feat. Metrik & Phetsta"
        INDEX 01 25:00:00
      TRACK 07 AUDIO
        TITLE "No Matter What (Sonix cut)"
        PERFORMER "Mistabishi"
        INDEX 01 28:46:00
      TRACK 08 AUDIO
        TITLE "Burning Up Inside"
        PERFORMER "Concept & Shnek"
        INDEX 01 31:14:00
      TRACK 09 AUDIO
        TITLE "King Of The Stars"
        PERFORMER "Crystal Clear & Netsky"
        INDEX 01 35:14:00
      TRACK 10 AUDIO
        TITLE "Luv Me (Logistics Remix)"
        PERFORMER "Blue Sonix"
        INDEX 01 41:03:00
      TRACK 11 AUDIO
        TITLE "Intervention"
        PERFORMER "Logistics"
        INDEX 01 44:08:00
      TRACK 12 AUDIO
        TITLE "Drift Away"
        PERFORMER "MRSA"
        INDEX 01 48:08:00
      TRACK 13 AUDIO
        TITLE "Just One Second (Apex Remix)"
        PERFORMER "London Elektricity"
        INDEX 01 52:30:00
      TRACK 14 AUDIO
        TITLE "View From Nowhere"
        PERFORMER "Mistabishi"
        INDEX 01 57:57:00
    

    DOWNLOAD LiNK:
    http://www.djsonix.com/mixes/DJ_Sonix_-_King_Of_The_Stars-www_djsonix_com.mp3

    File Size: 85 MB


    ...more at http://www.djsonix.com/mixes/


    [​IMG]
     
    Last edited: Aug 15, 2010
  2. ManuForti

    ManuForti Detached Audio

    Joined:
    Mar 8, 2007
    Messages:
    1,892
    Likes Received:
    667
    Location:
    Scotlander
    yeah quiet liked this.... cheers
     
  3. sonix

    sonix New Member

    Joined:
    Aug 14, 2010
    Messages:
    13
    Likes Received:
    1
    Location:
    Los Angeles